Search in ebookee.net!

The Dark Knight Rises 2012 BRRip 720p AC3 x264 DPL2



The poster (email) is not available. 收藏推荐: Bookmark this: The Dark Knight Rises 2012 BRRip 720p AC3 x264 DPL2

图书介绍



The Dark Knight Rises 2012 BRRip 720p AC3 x264 DPL2
The Dark Knight Rises 2012 BRRip 720p AC3 x264 DPL2
| 1.45 GB
File: The Dark Knight Rises 2012 720p AC3 x264 - DPL2.mkv
Size: 1553188128 bytes (1.45 GiB), duration: 02:44:32, avg.bitrate: 1259 kb/s
Audio: ac3, 48000 Hz, stereo (eng)
Video: h264, yuv420p, 1280x720, 23.98 fps(r) (eng)

http://www.imdb.com/title/tt1345836/


Despite his tarnished reputation after the events of The Dark Knight, in which he took the rap for Dent's crimes, Batman feels compelled to intervene to assist the city and its police force which is struggling to cope with Bane's plans to destroy the city.

Title:The Dark Knight Rises
Year:2012
Rating:8.6
Genre:Action / Crime / Thriller
Director:Christopher Nolan
Cast:Christian Bale / Gary Oldman / Tom Hardy / Joseph Gordon-Levitt / Anne Hathaway / Marion Cotillard / Morgan Freeman / Michael Caine / Matthew Modine / Alon Aboutboul / Ben Mendelsohn / Burn Gorman / Daniel Sunjata / Aidan Gillen / Sam Kennard

The Dark Knight Rises 2012 BRRip 720p AC3 x264 DPL2
The Dark Knight Rises 2012 BRRip 720p AC3 x264 DPL2
The Dark Knight Rises 2012 BRRip 720p AC3 x264 DPL2


NFo Notes

######################################################################
#____________________________________________________________________#
#__TTTTTTTT__HH HH__EEEEEEE__BBBBB __ OOOOOO __ SSSSSS__ SSSSSS__#
#_____TT_____HH HH__EE __BB B __OO OO__SS __SS __#
#_____TT_____HHHHHHHH__EEEEE __BBBBB __OO OO__ SSSS __ SSSS __#
#_____TT_____HH HH__EE __BB B __OO OO__ SS__ SS__#
#_____TT_____HH HH__EE __BB B__OO OO__ S__ S__#
#_____TT_____HH HH__EEEEEEE__BBBBBB __ OOOOOO __SSSSSS __SSSSSS __#
#____________________________________________________________________#
######################################################################
*************************PROUDLY PRESENTS*****************************
The Dark Knight Rises
######################################################################
Description:
Despite his tarnished reputation after the events of The Dark Knight, in which he took the rap for Dent's crimes, Batman feels compelled to intervene to assist the city and its police force which is struggling to cope with Bane's plans to destroy the city.
General
Complete name : The Dark Knight Rises 2012 720p AC3 x264 - DPL2.mkv
Format : Matroska
Format version : Version 2
File size : 1.45 GiB
Duration : 2h 44mn
Overall bit rate : 1 259 Kbps
Writing application : HandBrake 0.9.8
Writing library : libmkv 0.6.5
Video
ID : 1
Format : AVC
Format/Info : Advanced Video Codec
Format profile : /*
Format settings, CABAC : Yes
Format settings, ReFrames : 6 frames
Codec ID : V_MPEG4/ISO/AVC
Duration : 2h 44mn
Bit rate : 978 Kbps
Width : 1 280 pixels
Height : 720 pixels
Display aspect ratio : 16:9
Frame rate mode : Constant
Frame rate : 23.976 fps
Color space : YUV
Chroma subsampling : 4:2:0
Bit depth : 8 bits
Scan type : Progressive
Bits/(Pixel*Frame) : 0.044
Stream size : 1.12 GiB (78%)
Writing library : x264 core 120
Encoding settings : cabac=1 / ref=6 / deblock=1:1:0 / analyse=0x3:0x133 / me=umh / subme=10 / psy=1 / psy_rd=0.60:0.15 / mixed_ref=1 / me_range=32 / chroma_me=1 / trellis=2 / 8x8dct=1 / cqm=0 / deadzone=21,11 / fast_pskip=1 / chroma_qp_offset=-3 / threads=9 / sliced_threads=0 / nr=0 / decimate=1 / interlaced=0 / bluray_compat=0 / constrained_intra=0 / bframes=9 / b_pyramid=2 / b_adapt=2 / b_bias=0 / direct=3 / weightb=1 / open_gop=0 / weightp=2 / keyint=240 / keyint_min=24 / scenecut=40 / intra_refresh=0 / rc_lookahead=72 / rc=crf / mbtree=1 / crf=22.5 / qcomp=0.60 / qpmin=3 / qpmax=69 / qpstep=4 / ip_ratio=1.40 / aq=1:1.00
Language : English
Default : Yes
Forced : No
Color primaries : BT.709
Transfer characteristics : BT.709
Matrix coefficients : BT.709
Audio
ID : 2
Format : AC-3
Format/Info : Audio Coding 3
Format profile : Dolby Digital
Mode extension : CM (complete main)
Format settings, Endianness : Big
Codec ID : A_AC3
Duration : 2h 44mn
Bit rate mode : Constant
Bit rate : 256 Kbps
Channel count : 2 channels
Channel positions : Front: L R
Sampling rate : 48.0 KHz
Bit depth : 16 bits
Compression mode : Lossy
Stream size : 301 MiB (20%)
Language : English
Default : Yes
Forced : No


Buy Premium Account and Download it at High Speed Before They Get Deleted

If you like My contribution Then Please support me by getting an premium account



Download link:
RapidGator:
http://rapidgator.net/file/3540a5b9efe440eacbc998d961a4b0db/xnrvy.The.Dark.Knight.Rises.2012.BRRip.720p.AC3.x264.DPL2.part2.rar.html

Uploaded:
http://uploaded.net/file/iohsbhy9/xnrvy.The.Dark.Knight.Rises.2012.BRRip.720p.AC3.x264.DPL2.part1.rar
http://uploaded.net/file/wq4aod0r/xnrvy.The.Dark.Knight.Rises.2012.BRRip.720p.AC3.x264.DPL2.part2.rar

OBoom:
http://www.oboom.com/O3N7G4A8/xnrvy.The.Dark.Knight.Rises.2012.BRRip.720p.AC3.x264.DPL2.part1.rar
http://www.oboom.com/4VA2KPR0/xnrvy.The.Dark.Knight.Rises.2012.BRRip.720p.AC3.x264.DPL2.part2.rar

TurboBit:
http://turbobit.net/361w79gooa9m/xnrvy.The.Dark.Knight.Rises.2012.BRRip.720p.AC3.x264.DPL2.part1.rar.html

Uploadable:
http://www.uploadable.ch/file/mBD45J2gVDFr/xnrvy.The.Dark.Knight.Rises.2012.BRRip.720p.AC3.x264.DPL2.part1.rar
http://www.uploadable.ch/file/JEvdQnQWwUDc/xnrvy.The.Dark.Knight.Rises.2012.BRRip.720p.AC3.x264.DPL2.part2.rar

Links are Interchangeable - No Password - Single Extraction

[Directly Download] The Dark Knight Rises 2012 BRRip 720p AC3 x264 DPL2!


Download this book
DOWNLOAD Free download ezdownloader, then you can free download.

Download "The Dark Knight Rises 2012 BRRip 720p AC3 x264 DPL2"

使用ezdownloader下载
DOWNLOAD


Copyright Disclaimer:
本站一切内容源于互联网搜索,禁止商用! 如有任何不妥请联系:admin@ebookee.com,我们将在24小时内删除相关内容。

浏览量:0 添加时间:2014-05-18 10:30:17, 更新时间:2014-05-18 10:30:17, shared by interestinglike

搜索该书!...


Search mirrors of "The Dark Knight Rises 2012 BRRip 720p AC3 x264 DPL2"...

Search in ebookee.com!

下载链接


Free Magazine Subscriptions & Technical Document Downloads

推荐:使用EZdownloader下载电子书


没有下载链接
请在图书介绍里查找下载链接,如果没有,可以试着搜索有无其它该书信息。

不能下载?
如果不能下载或者在“图书介绍”中找不到 "The Dark Knight Rises 2012 BRRip 720p AC3 x264 DPL2" 的下载链接请留言。下次访问本站时察看 所有留言 看是否有人已经更新了该书。

该书可能有其它下载链接,请点 这里查询相关图书


相关链接


"The Dark Knight Rises 2012 BRRip 720p AC3 x264 DPL2" 相关链接:


Comments


"The Dark Knight Rises 2012 BRRip 720p AC3 x264 DPL2" 没有评论.

    Leave a Comment

    如果没有下载链接或者下载链接无效,请查看相关链接或者搜索相关资料。

    required

    required

    email addresses

    required

    Not clear? Click to refresh.


    1. 艺术设计
    2. 有声读物
    3. 语言文化
    4. 家庭生活
    5. 法律
    6. 音乐歌词
    7. 软件相关
    8. BT种子
    9. 其它图书
    10. 所有留言
    11. 留言评论
    12. Download Thousands of Books two weeks for FREE!
    13. Download millions of Usenet resources!
    14. 海淀驾校
    Back to Top